Your IP Address is . Location is Your ISP and Government can track your torrent activity! Hide your IP with a VPN!

Accident Man (2018).H264.italian.english.Ac3-5.1.sub.ita.eng.MIRCrew

DOWNLOAD TORRENT DOWNLOAD Watch Online

Posted by robbyrs3 •467 on February 13, 2018 in Movies » Action , verified torrent

Size: 1.61 GB , Seeds: 229 , Peers: 49 ( Updated February 19, 2018 - Refresh )

* Download via Magnet Link , * To download files you need a Bittorrent Client , * How to download torrents from Bit Torrent Scene?

Scrape History ( seeds + peers )

Internal Files

Accident Man (2018).H264.ita.eng.sub.ita.eng-MIRCrew
Accident Man (2018).H264.ita.eng.sub.ita.eng-MIRCrew.eng.srt   104.81 KB
Accident Man (2018).H264.ita.eng.sub.ita.eng-MIRCrew.ita.srt   102.51 KB
Accident Man (2018).H264.ita.eng.sub.ita.eng-MIRCrew.mkv   1.61 GB
Accident Man (2018).H264.ita.eng.sub.ita.eng-MIRCrew.NHeng.srt   114.65 KB
Accident Man (2018).H264.ita.eng.sub.ita.eng-MIRCrew.srt   251 Byte

Hash Code

0724677e73851ae36b366b9b7f06941e31b4741e

Description

Accident Man (2018).H264.italian.english.Ac3-5.1.sub.ita.eng.MIRCrew

SCREENSHOT
NO FOUND ONLY ORIGINAL RELEASE

SCREENSHOT

My release is always in double track audio italian and Original audio
for select it use VLC or dvd player home
not use wmp

Accident Man 2018

SCREENSHOT

SCREENSHOT

SCREENSHOT

Data di uscita: 6 febbraio 2018
Regista: Jesse V. Johnson
Musica composta da: Sean Murray
Durata: 105 m
Produttori: Scott Adkins, Craig Baumgarten, Ben Jacques, Erik Kritzer
Distribuito da: Destination Films, Sony Pictures Home Entertainment

SCREENSHOT

Scott Adkins, Ashley Greene, Michael Jai White, Amy Johnston, Ray Park, Ray Stevenson, David Paymer, Nick Moran, Perry Benson, Ross O’Hennessy, Roger Yuan, Lee Charles, Tim Man,

SCREENSHOT

Castle Rock: l'arrivo di Leland Gaunt e l'apertura del negozio "Cose Preziose" suscita la curiosità degli abitanti del luogo: il negozio sembra realizzare i sogni di tutti coloro che cercano disperatamente un qualsiasi oggetto. Quando si accorgono che non possono pagare il prezzo richiesto, il proprietario inizia ad esigere un "favore", che si traduce in qualche dispetto a qualche abitante del paese...........

SCREENSHOT

Mike Fallon, the Accident Man, is a stone cold killer whose methodical hits baffle the police and delight his clients. He is the best at what he does. But when a loved one is dragged into ... ..........

SCREENSHOT

SCREENSHOT
SCREENSHOT
SCREENSHOT
SCREENSHOT
SCREENSHOT



SCREENSHOT

[spoiler]
General
Unique ID : 244939158900886926912476020396082070518 (0xB84590E9D5830771AADC0FD3275003F6)
Complete name : Accident Man (2018).H264.ita.eng.sub.ita.eng-MIRCrewAccident Man (2018).H264.ita.eng.sub.ita.eng-MIRCrew.mkv
Format : Matroska
Format version : Version 2
File size : 1.61 GiB
Duration : 1h 45mn
Overall bit rate : 2 187 Kbps
Movie name : MIRCrew
Encoded date : UTC 2018-02-12 09:27:37
Writing application : mkvmerge v5.4.0 ('Piper') built on Mar 10 2012 13:34:39
Writing library : Lavf54.63.100
COPYRIGHT : robbyrs-iCN

Video
ID : 1
Format : AVC
Format/Info : Advanced Video Codec
Format profile : [email protected]
Format settings, CABAC : Yes
Format settings, ReFrames : 2 frames
Codec ID : V_MPEG4/ISO/AVC
Duration : 1h 45mn
Bit rate : 1 290 Kbps
Width : 720 pixels
Height : 304 pixels
Display aspect ratio : 2.40:1
Frame rate mode : Variable
Frame rate : 23.976 fps
Color space : YUV
Chroma subsampling : 4:2:0
Bit depth : 8 bits
Scan type : Progressive
Bits/(Pixel*Frame) : 0.246
Stream size : 942 MiB (57%)
Title : Accident Man (2018).H264.ita.eng.sub.ita.eng-MIRCrew
Writing library : x264 core 130 r2273
Encoding settings : cabac=1 / ref=2 / deblock=1:0:0 / analyse=0x1:0x131 / me=hex / subme=7 / psy=1 / psy_rd=1.00:0.00 / mixed_ref=0 / me_range=16 / chroma_me=1 / trellis=1 / 8x8dct=0 / cqm=0 / deadzone=21,11 / fast_pskip=1 / chroma_qp_offset=-2 / threads=3 / lookahead_threads=1 / sliced_threads=0 / nr=0 / decimate=1 / interlaced=0 / bluray_compat=0 / constrained_intra=0 / bframes=3 / b_pyramid=0 / b_adapt=1 / b_bias=0 / direct=3 / weightb=1 / open_gop=0 / weightp=2 / keyint=230 / keyint_min=23 / scenecut=40 / intra_refresh=0 / rc_lookahead=40 / rc=abr / mbtree=1 / bitrate=1290 / ratetol=1.0 / qcomp=0.60 / qpmin=10 / qpmax=69 / qpstep=4 / vbv_maxrate=24000 / vbv_bufsize=24000 / nal_hrd=none / ip_ratio=1.40 / aq=1:1.00
Default : Yes
Forced : No
DURATION : 01:45:28.864000000
NUMBER_OF_FRAMES : 151741
NUMBER_OF_BYTES : 6206408514
_STATISTICS_WRITING_APP : mkvmerge v9.7.1 ('Pandemonium') 64bit
_STATISTICS_WRITING_DATE_UTC : 2018-02-08 17:51:19
_STATISTICS_TAGS : BPS DURATION NUMBER_OF_FRAMES NUMBER_OF_BYTES

Audio #1
ID : 2
Format : AC-3
Format/Info : Audio Coding 3
Mode extension : CM (complete main)
Codec ID : A_AC3
Duration : 1h 45mn
Bit rate mode : Constant
Bit rate : 448 Kbps
Channel(s) : 6 channels
Channel positions : Front: L C R, Side: L R, LFE
Sampling rate : 48.0 KHz
Bit depth : 16 bits
Compression mode : Lossy
Delay relative to video : -5ms
Stream size : 338 MiB (20%)
Title : ita ac3 5.1
Language : Italian
Default : No
Forced : No
DURATION : 01:45:29.312000000
NUMBER_OF_FRAMES : 197791
NUMBER_OF_BYTES : 506344960
_STATISTICS_WRITING_APP : mkvmerge v9.7.1 ('Pandemonium') 64bit
_STATISTICS_WRITING_DATE_UTC : 2018-02-08 17:51:19
_STATISTICS_TAGS : BPS DURATION NUMBER_OF_FRAMES NUMBER_OF_BYTES

Audio #2
ID : 3
Format : AC-3
Format/Info : Audio Coding 3
Mode extension : CM (complete main)
Codec ID : A_AC3
Duration : 1h 45mn
Bit rate mode : Constant
Bit rate : 448 Kbps
Channel(s) : 6 channels
Channel positions : Front: L C R, Side: L R, LFE
Sampling rate : 48.0 KHz
Bit depth : 16 bits
Compression mode : Lossy
Delay relative to video : -5ms
Stream size : 338 MiB (20%)
Title : eng ac3 5.1
Language : English
Default : No
Forced : No
DURATION : 01:45:29.334000000
NUMBER_OF_FRAMES : 593375
NUMBER_OF_BYTES : 1193870568
_STATISTICS_WRITING_APP : mkvmerge v9.7.1 ('Pandemonium') 64bit
_STATISTICS_WRITING_DATE_UTC : 2018-02-08 17:51:19
_STATISTICS_TAGS : BPS DURATION NUMBER_OF_FRAMES NUMBER_OF_BYTES

Menu
00:00:00.000 : :(01)00:00:00:000
00:06:02.153 : :(02)00:06:02:153
00:15:28.844 : :(03)00:15:28:844
00:17:56.366 : :(04)00:17:56:366
00:21:30.455 : :(05)00:21:30:455
00:28:05.558 : :(06)00:28:05:558
00:33:13.157 : :(07)00:33:13:157
00:42:36.554 : :(08)00:42:36:554
00:46:16.273 : :(09)00:46:16:273
00:53:10.729 : :(10)00:53:10:729
00:58:43.144 : :(11)00:58:43:144
01:05:58.871 : :(12)01:05:58:871
01:11:50.306 : :(13)01:11:50:306
01:15:08.378 : :(14)01:15:08:378
01:26:46.201 : :(15)01:26:46:201
01:33:46.203 : :(16)01:33:46:203



[/spoiler]

Trackers

Refresh Leechers : Updated February 19, 2018

1. udp://tracker.coppersurfer.tk:6969/announce

2. udp://tracker.opentrackr.org:1337/announce

3. udp://tracker.pirateparty.gr:6969/announce

4. udp://tracker.zer0day.to:1337/announce

5. udp://p4p.arenabg.com:1337/announce

6. udp://p4p.arenabg.ch:1337/announce

7. udp://eddie4.nl:6969/announce

8. udp://tracker.leechers-paradise.org:6969/announce

9. udp://9.rarbg.me:2740/announce

10. udp://9.rarbg.to:2740/announce

11. udp://9.rarbg.com:2710/announce

12. http://bigfoot1942.sektori.org:6969/announce

13. udp://tracker.internetwarriors.net:1337/announce

14. udp://oscar.reyesleon.xyz:6969/announce

15. udp://tracker.cyberia.is:6969/announce

Comments

You must log in to add a comment.

Embed Code

Sharing Widget

Top Movies ( auto generated report )

FILENAME SIZE SEEDS PEERS ADDED UPD
[i] Raw (2016) [BluRay] [720p] [YTS AM] 909.03 MB 1314 857 21 hours 19 hours
[i] The Disaster Artist (2017) [WEBRip] [720p] [YTS AM] 947.02 MB 1414 1731 21 hours 19 hours
[i] Raw (2016) [BluRay] [1080p] [YTS AM] 1.64 GB 944 613 21 hours 19 hours
[i] The Man Who Invented Christmas (2017) [WEBRip] [720p] [YTS AM] 967.45 MB 1165 1427 21 hours 19 hours
[i] Selfie from Hell (2018) [WEBRip] [720p] [YTS AM] 699.1 MB 847 754 21 hours 19 hours
[i] The Man Who Invented Christmas (2017) [WEBRip] [1080p] [YTS AM] 1.75 GB 959 935 21 hours 19 hours
[i] Selfie from Hell (2018) [WEBRip] [1080p] [YTS AM] 1.26 GB 651 476 21 hours 19 hours
[i] Giant (2017) [BluRay] [1080p] [YTS AM] 1.91 GB 512 321 21 hours 19 hours
[i] The Women's Balcony (2016) [BluRay] [720p] [YTS AM] 917.74 MB 401 245 21 hours 19 hours
[i] The Women's Balcony (2016) [BluRay] [1080p] [YTS AM] 1.66 GB 334 242 21 hours 19 hours