Your IP Address is . Location is Your ISP and Government can track your torrent activity! Hide your IP with a VPN!

Initiation 2016 720p WEB-DL x264 ESub

DOWNLOAD TORRENT DOWNLOAD Watch Online

Posted by moviefreak •927 on February 13, 2018 in Movies » Thriller , verified torrent

Size: 806.34 MB , Seeds: 1 , Peers: 1 ( Updated February 19, 2018 - Refresh )

* Download via Magnet Link , * To download files you need a Bittorrent Client , * How to download torrents from Bit Torrent Scene?

Scrape History ( seeds + peers )

Internal Files

Initiation 2016 720p WEB-DL x264 ESub
Initiation 2016 720p WEB-DL x264 ESub.mkv   806.34 MB

Hash Code

0d0c7c9045e2b510d5e8ee970f358e8161d411c6

Description


SCREENSHOT

General
Format : Matroska
Format version : Version 4 / Version 2
File size : 806 MiB
Duration : 1 h 21 min
Overall bit rate : 1 384 kb/s

Video
ID : 1
Format : AVC
Format/Info : Advanced Video Codec
Format profile : [email protected]
Format settings : CABAC / 4 Ref Frames
Format settings, CABAC : Yes
Format settings, ReFrames : 4 frames
Codec ID : V_MPEG4/ISO/AVC
Duration : 1 h 21 min
Bit rate : 1 300 kb/s
Width : 1 280 pixels
Height : 720 pixels
Display aspect ratio : 16:9
Frame rate mode : Constant
Frame rate : 23.976 (24000/1001) FPS
Color space : YUV
Chroma subsampling : 4:2:0
Bit depth : 8 bits
Scan type : Progressive
Bits/(Pixel*Frame) : 0.059
Stream size : 749 MiB (93%)
Writing library : x264 core 148 r2708 86b7198
Default : Yes
Forced : No

Audio
ID : 3
Format : AAC
Format/Info : Advanced Audio Codec
Format profile : LC
Codec ID : A_AAC-2
Duration : 1 h 21 min
Bit rate : 96.0 kb/s
Channel(s) : 2 channels
Channel positions : Front: L R
Sampling rate : 44.1 kHz
Frame rate : 43.066 FPS (1024 SPF)
Compression mode : Lossy
Stream size : 55.9 MiB (7%)
Language : English
Default : Yes
Forced : No

Text
ID : 2
Format : UTF-8
Codec ID : S_TEXT/UTF8
Codec ID/Info : UTF-8 Plain Text
Duration : 1 h 17 min
Bit rate : 54 b/s
Count of elements : 1224
Stream size : 31.0 KiB (0%)
Default : Yes
Forced : No

Menu
00:00:00.000 : en:Opening Sequence
00:06:40.000 : en:Some Common Factor
00:14:21.000 : en:Very Few Men
00:20:49.000 : en:Recover!
00:27:27.000 : en:Respect The Process
00:34:07.000 : en:I'm Not Dying
00:41:17.000 : en:Think You Can Fight?
00:50:00.000 : en:Honorary Marine
00:57:32.000 : en:Your Last Hour
01:03:25.000 : en:Execute!
01:07:07.000 : en:Don't Stop Moving
01:13:50.000 : en:End Credits




SCREENSHOT
SCREENSHOT
SCREENSHOT
SCREENSHOT
SCREENSHOT
SCREENSHOT
SCREENSHOT
SCREENSHOT
SCREENSHOT
SCREENSHOT

Trackers

Refresh Leechers : Updated February 19, 2018

1. udp://tracker.coppersurfer.tk:6969/announce

2. udp://tracker.leechers-paradise.org:6969/announce

3. udp://inferno.demonoid.pw:3391/announce

4. udp://tracker.tntvillage.scambioetico.org:2710/announce

5. udp://tracker.pirateparty.gr:6969/announce

6. udp://9.rarbg.com:2770/announce

7. udp://public.popcorn-tracker.org:6969/announce

8. udp://tracker.zer0day.to:1337/announce

9. http://bigfoot1942.sektori.org:6969/announce

10. udp://ipv4.tracker.harry.lu:80/announce

11. udp://shadowshq.yi.org:6969/announce

12. udp://tracker.vanitycore.co:6969/announce

13. udp://tracker.opentrackr.org:1337/announce

14. udp://explodie.org:6969/announce

15. udp://tracker.zer0day.to:1337/announce

16. udp://tracker.leechers-paradise.org:6969/announce

17. udp://coppersurfer.tk:6969/announce

Comments

You must log in to add a comment.

Embed Code

Sharing Widget

Related torrents

FILENAME SIZE SEEDS PEERS ADDED UPD
[i] *[TheUpperFloor / Kink] Casey Calvert And Piper Perri (Piper Perri's Sex Slave Initiation / 22-01-2016) [2016, BDSM, Anal, Bondage, Group, Orgy, Domination, BJ, Hardcore, All Sex, HDRip, 720p] 2.87 GB 0 0 2 years 7 months

Top Movies ( auto generated report )

FILENAME SIZE SEEDS PEERS ADDED UPD
[i] Raw (2016) [BluRay] [720p] [YTS AM] 909.03 MB 1314 857 21 hours 19 hours
[i] The Disaster Artist (2017) [WEBRip] [720p] [YTS AM] 947.02 MB 1414 1731 21 hours 19 hours
[i] Raw (2016) [BluRay] [1080p] [YTS AM] 1.64 GB 944 613 21 hours 19 hours
[i] The Man Who Invented Christmas (2017) [WEBRip] [720p] [YTS AM] 967.45 MB 1165 1427 21 hours 19 hours
[i] Selfie from Hell (2018) [WEBRip] [720p] [YTS AM] 699.1 MB 847 754 21 hours 19 hours
[i] The Man Who Invented Christmas (2017) [WEBRip] [1080p] [YTS AM] 1.75 GB 959 935 21 hours 19 hours
[i] Selfie from Hell (2018) [WEBRip] [1080p] [YTS AM] 1.26 GB 651 476 21 hours 19 hours
[i] Giant (2017) [BluRay] [1080p] [YTS AM] 1.91 GB 512 321 21 hours 19 hours
[i] The Women's Balcony (2016) [BluRay] [720p] [YTS AM] 917.74 MB 401 245 21 hours 19 hours
[i] The Women's Balcony (2016) [BluRay] [1080p] [YTS AM] 1.66 GB 334 242 21 hours 19 hours