Your IP Address is . Location is Your ISP and Government can track your torrent activity! Hide your IP with a VPN!

Swing State 2017 720p WEB-DL x264 ESub

DOWNLOAD TORRENT DOWNLOAD Watch Online

Posted by moviefreak •927 on February 13, 2018 in Movies » Romance , verified torrent

Size: 815.23 MB , Seeds: 3 , Peers: 3 ( Updated February 19, 2018 - Refresh )

* Download via Magnet Link , * To download files you need a Bittorrent Client , * How to download torrents from Bit Torrent Scene?

Scrape History ( seeds + peers )

Internal Files

Swing State 2017 720p WEB-DL x264 ESub
Swing State 2017 720p WEB-DL x264 ESub.mkv   815.23 MB

Hash Code

25bae7285c6fb20d5366c49ce0a91884f006e3dc

Description


SCREENSHOT

General
Format : Matroska
Format version : Version 4 / Version 2
File size : 815 MiB
Duration : 1 h 28 min
Overall bit rate : 1 283 kb/s

Video
ID : 1
Format : AVC
Format/Info : Advanced Video Codec
Format profile : [email protected]
Format settings : CABAC / 4 Ref Frames
Format settings, CABAC : Yes
Format settings, ReFrames : 4 frames
Codec ID : V_MPEG4/ISO/AVC
Duration : 1 h 28 min
Bit rate : 1 200 kb/s
Width : 1 280 pixels
Height : 544 pixels
Display aspect ratio : 2.35:1
Frame rate mode : Constant
Frame rate : 23.976 (24000/1001) FPS
Color space : YUV
Chroma subsampling : 4:2:0
Bit depth : 8 bits
Scan type : Progressive
Bits/(Pixel*Frame) : 0.072
Stream size : 753 MiB (92%)
Writing library : x264 core 148 r2708 86b7198
Default : Yes
Forced : No

Audio
ID : 2
Format : AAC
Format/Info : Advanced Audio Codec
Format profile : LC
Codec ID : A_AAC-2
Duration : 1 h 28 min
Bit rate : 96.0 kb/s
Channel(s) : 2 channels
Channel positions : Front: L R
Sampling rate : 44.1 kHz
Frame rate : 43.066 FPS (1024 SPF)
Compression mode : Lossy
Stream size : 61.0 MiB (7%)
Language : English
Default : Yes
Forced : No

Text
ID : 3
Format : UTF-8
Codec ID : S_TEXT/UTF8
Codec ID/Info : UTF-8 Plain Text
Duration : 1 h 24 min
Bit rate : 98 b/s
Count of elements : 1554
Stream size : 60.9 KiB (0%)
Default : Yes
Forced : No

Menu
00:00:00.000 : en:Learning to Fly
00:10:42.000 : en:Master of Puppets
00:29:12.000 : en:The Royal Scam
01:16:43.000 : en:Sing Me Back Home
01:24:30.000 : en:All鈥檚 Well That Ends Well





SCREENSHOT
SCREENSHOT
SCREENSHOT
SCREENSHOT
SCREENSHOT
SCREENSHOT
SCREENSHOT
SCREENSHOT
SCREENSHOT
SCREENSHOT
SCREENSHOT

Trackers

Refresh Leechers : Updated February 19, 2018

1. udp://tracker.coppersurfer.tk:6969/announce

2. udp://tracker.leechers-paradise.org:6969/announce

3. udp://inferno.demonoid.pw:3391/announce

4. udp://tracker.tntvillage.scambioetico.org:2710/announce

5. udp://tracker.pirateparty.gr:6969/announce

6. udp://9.rarbg.com:2770/announce

7. udp://public.popcorn-tracker.org:6969/announce

8. udp://tracker.zer0day.to:1337/announce

9. http://bigfoot1942.sektori.org:6969/announce

10. udp://ipv4.tracker.harry.lu:80/announce

11. udp://shadowshq.yi.org:6969/announce

12. udp://tracker.vanitycore.co:6969/announce

13. udp://tracker.opentrackr.org:1337/announce

14. udp://explodie.org:6969/announce

15. udp://tracker.zer0day.to:1337/announce

16. udp://tracker.leechers-paradise.org:6969/announce

17. udp://coppersurfer.tk:6969/announce

Comments

You must log in to add a comment.

Embed Code

Sharing Widget

Top Movies ( auto generated report )

FILENAME SIZE SEEDS PEERS ADDED UPD
[i] Raw (2016) [BluRay] [720p] [YTS AM] 909.03 MB 1314 857 21 hours 19 hours
[i] The Disaster Artist (2017) [WEBRip] [720p] [YTS AM] 947.02 MB 1414 1731 21 hours 19 hours
[i] Raw (2016) [BluRay] [1080p] [YTS AM] 1.64 GB 944 613 21 hours 19 hours
[i] The Man Who Invented Christmas (2017) [WEBRip] [720p] [YTS AM] 967.45 MB 1165 1427 21 hours 19 hours
[i] Selfie from Hell (2018) [WEBRip] [720p] [YTS AM] 699.1 MB 847 754 21 hours 19 hours
[i] The Man Who Invented Christmas (2017) [WEBRip] [1080p] [YTS AM] 1.75 GB 959 935 21 hours 19 hours
[i] Selfie from Hell (2018) [WEBRip] [1080p] [YTS AM] 1.26 GB 651 476 21 hours 19 hours
[i] Giant (2017) [BluRay] [1080p] [YTS AM] 1.91 GB 512 321 21 hours 19 hours
[i] The Women's Balcony (2016) [BluRay] [720p] [YTS AM] 917.74 MB 401 245 21 hours 19 hours
[i] The Women's Balcony (2016) [BluRay] [1080p] [YTS AM] 1.66 GB 334 242 21 hours 19 hours