Your IP Address is . Location is Your ISP and Government can track your torrent activity! Hide your IP with a VPN!

Three.Billboards.Outside.Ebbing.Missouri.2017.WEB-DL.XviD.MP3-FGT

DOWNLOAD TORRENT DOWNLOAD Watch Online

Posted on February 13, 2018 in Movies » Misc , verified torrent

Size: 1.37 GB , Seeds: 48 , Peers: 5 ( Updated February 19, 2018 - Refresh )

* Download via Magnet Link , * To download files you need a Bittorrent Client , * How to download torrents from Bit Torrent Scene?

Scrape History ( seeds + peers )

Internal Files

Three.Billboards.Outside.Ebbing.Missouri.2017.WEB-DL.XviD.MP3-FGT
RARBG.txt   31 Byte
Three.Billboards.Outside.Ebbing.Missouri.2017.WEB-DL.XviD.MP3-FGT.avi   1.37 GB

Hash Code

8d9d246eae59e579f8b0cef141c3a1e503bc53cf

Description

SCREENSHOT

THREE BILLBOARDS OUTSIDE EBBING| MISSOURI is a darkly comic drama from Academy Award nominee Martin McDonagh (In Bruges). After months have passed without a culprit in her daughter's murder case| Mildred Hayes (Academy Award winner Frances McDormand) makes a bold move| painting three signs leading into her town with a controversial message directed at William Willoughby (Academy Award nominee Woody Harrelson)| the town's revered chief of police. When his second-in-command Officer Dixon (Sam Rockwell)| an immature mother's boy with a penchant for violence| gets involved| the battle between Mildred and Ebbing's law enforcement is only exacerbated.


IMDB Rating: 8.3/10 from 96852 users Updated : 2018-02-13

Rotten Rating: 8.5/10

RottenTomatoes: fresh! 93% audience liked it! 87%

Genres: Crime , Drama

Actors: Frances McDormand , Woody Harrelson , Sam Rockwell , Caleb Landry Jones , Kerry Condon , Alejandro Barrios , Jason Redford , Darrell Britt-Gibson , Abbie Cornish , Riya May Atwood , Selah Atwood , Lucas Hedges , Zeljko Ivanek , Amanda Warren , Malaya Rivera Drew

Director: Martin McDonagh


Video

ID : 0

Format : MPEG-4 Visual

Format profile : [email protected]
Format settings, BVOP : No

Format settings, QPel : No

Format settings, GMC : No warppoints

Format settings, Matrix : Default (H.263)

Codec ID : XVID

Codec ID/Hint : XviD

Duration : 1 h 55 min

Bit rate : 1 489 kb/s

Width : 720 pixels

Height : 304 pixels

Display aspect ratio : 2.40:1

Frame rate : 24.000 FPS

Color space : YUV

Chroma subsampling : 4:2:0

Bit depth : 8 bits

Scan type : Progressive

Compression mode : Lossy

Bits/(Pixel*Frame) : 0.283

Stream size : 1.20 GiB (88%)

Writing library : Lavc58.1.100


Audio

ID : 1

Format : MPEG Audio

Format version : Version 1

Format profile : Layer 3

Format settings : Joint stereo / MS Stereo

Codec ID : 55

Codec ID/Hint : MP3

Duration : 1 h 55 min

Bit rate mode : Constant

Bit rate : 192 kb/s

Channel(s) : 2 channels

Sampling rate : 48.0 kHz

Compression mode : Lossy

Stream size : 158 MiB (11%)

Alignment : Aligned on interleaves

Interleave, duration : 24 ms (0.58 video frame)

Interleave, preload duration : 504 ms

Writing library : LAMEÿÿÿæVa¡ ÂÀ

SCREENSHOT
SCREENSHOT

Torrent location

http://www.1337x.to/torrent/2797767/Three-Billboards-Outside-Ebbing-Missouri-2017-WEB-DL-XviD-MP3-FGT/

Trackers

Refresh Leechers : Updated February 19, 2018

1. http://bigfoot1942.sektori.org:6969/announce

2. http://tracker2.wasabii.com.tw:6969/announce

3. http://tracker.opentrackr.org/announce

4. http://announce.torrentsmd.com:6969/announce

5. http://tracker.trackerfix.com/announce

6. http://tracker.opentrackr.org/announce

7. udp://explodie.org:6969/announce

8. udp://mgtracker.org:6969/announce

9. udp://asnet.pw:2710/announce

10. udp://tracker.mgtracker.org:2710/announce

11. udp://tracker4.piratux.com:6969/announce

12. udp://tracker.trackerfix.com:80/announce

13. udp://tracker.pomf.se:80/announce

14. udp://tracker.x4w.co:6969/announce

15. udp://castradio.net:6969/announce

16. udp://ipv4.tracker.harry.lu:80/announce

17. udp://tracker.mg64.net:6881/announce

18. udp://tracker.sktorrent.net:6969/announce

19. udp://tracker.blackunicorn.xyz:6969/announce

20. udp://tracker.internetwarriors.net:1337/announce

21. udp://public.popcorn-tracker.org:6969/announce

22. udp://glotorrents.pw:6969/announce

23. udp://tracker.vanitycore.co:6969/announce

24. udp://tracker.trackerfix.com:80/announce

25. udp://p4p.arenabg.ch:1337/announce

26. udp://9.rarbg.me:2710/announce

27. udp://tracker.zer0day.to:1337/announce

28. udp://tracker.opentrackr.org:1337/announce

29. udp://tracker.pirateparty.gr:6969/announce

30. udp://9.rarbg.to:2710/announce

31. udp://eddie4.nl:6969/announce

32. udp://tracker.coppersurfer.tk:6969/announce

33. udp://tracker.leechers-paradise.org:6969/announce

34. http://tracker.trackerfix.com/announce

35. udp://9.rarbg.to:2710/announce

36. udp://9.rarbg.me:2710/announce

Comments

You must log in to add a comment.

Embed Code

Sharing Widget

Related torrents

FILENAME SIZE SEEDS PEERS ADDED UPD
[i] Three.Billboards.Outside.Ebbing,Missouri.2017.DVDScr.XVID.AC3.HQ.Hive-CM8[EtMovies] 1.53 GB 4611 1544 1 month 3 weeks
[i] Three Billboards Outside Ebbing, Missouri (2017) [1080p] [YTS AG] 1.75 GB 2288 1069 1 week 1 day
[i] Three Billboards Outside Ebbing, Missouri (2017) [720p] [YTS AG] 847.2 MB 1920 830 1 week 1 day
[i] Three.Billboards.Outside.Ebbing.Missouri.2017.DVDRip.x264-EZIS[EtMovies] 659.2 MB 694 356 1 month 1 week
[i] Three.Billboards.Outside.Ebbing.Missouri.2017.WEB-DL.x264-FGT 1.09 GB 264 31 1 week 3 days
[i] Three Billboards Outside Ebbing, Missouri (2017) DVDSCR 750MB - MkvCage 753.3 MB 167 22 1 month 3 weeks
[i] Three Billboards Outside Ebbing, Missouri (2017) 720p BRRip 1GB - MkvCage 1.05 GB 110 29 1 week 1 day
[i] Three Billboards Outside Ebbing Missouri.2017.HDRip.XviD.AC3-EVO 1.39 GB 99 23 1 week 3 days
[i] Three Billboards Outside Ebbing,Missouri 2017 DVDScr XVID AC3 HQ Hive-CM8
posted by roflcopter2110 in Movies - Misc
1.52 GB 98 14 1 month 3 weeks
[i] Three Billboards Outside Ebbing Missouri.2017.HDRip.XviD.AC3-EVO 1.39 GB 39 20 1 week 3 days

Top Movies ( auto generated report )

FILENAME SIZE SEEDS PEERS ADDED UPD
[i] Raw (2016) [BluRay] [720p] [YTS AM] 909.03 MB 1314 857 21 hours 19 hours
[i] The Disaster Artist (2017) [WEBRip] [720p] [YTS AM] 947.02 MB 1414 1731 21 hours 19 hours
[i] Raw (2016) [BluRay] [1080p] [YTS AM] 1.64 GB 944 613 21 hours 19 hours
[i] The Man Who Invented Christmas (2017) [WEBRip] [720p] [YTS AM] 967.45 MB 1165 1427 21 hours 19 hours
[i] Selfie from Hell (2018) [WEBRip] [720p] [YTS AM] 699.1 MB 847 754 21 hours 19 hours
[i] The Man Who Invented Christmas (2017) [WEBRip] [1080p] [YTS AM] 1.75 GB 959 935 21 hours 19 hours
[i] Selfie from Hell (2018) [WEBRip] [1080p] [YTS AM] 1.26 GB 651 476 21 hours 19 hours
[i] Giant (2017) [BluRay] [1080p] [YTS AM] 1.91 GB 512 321 21 hours 19 hours
[i] The Women's Balcony (2016) [BluRay] [720p] [YTS AM] 917.74 MB 401 245 21 hours 19 hours
[i] The Women's Balcony (2016) [BluRay] [1080p] [YTS AM] 1.66 GB 334 242 21 hours 19 hours